[ Nuevos mensajes · Participantes · Reglas del foro · Búscar · RSS ]
Página 1 de 11
Foro » Peliculas y Series » HDD/BluRay » Origen (Inception)[BDrip][1280x720][Esp_ac3][Trhiller_Intrig
Origen (Inception)[BDrip][1280x720][Esp_ac3][Trhiller_Intrig
florin19Fecha: Lunes, 31/Ene/2011, 16:32 | Mensaje # 1
Teniente coronel
Grupo: Administradores
Mensajes: 117
Reputación: 0
Estatus: Offline

Título en Español: El Origen
Título original: Inception.
Dirección y guión: Christopher Nolan.
Países: Reino Unido.
Año: 2010.
Duración: 148 min.
Género: Acción, ciencia-ficción, thriller.

Interpretación: Leonardo DiCaprio (Cobb), Ken Watanabe (Saito), Joseph Gordon-Levitt (Arthur), Marion Cotillard (Mal), Ellen Page (Ariadne), Tom Hardy (Eames), Cillian Murphy (Robert Fischer), Tom Berenger (Browning), Michael Caine (Miles), Lukas Haas (Nash), Pete Postlethwaite (Maurice), Dileep Rao (Yusuf).
Producción: Christopher Nolan y Emma Thomas.

Dom Cobb (DiCaprio) es el mejor del mundo en el arte de la extracción: apropiarse de los secretos del subconsciente justo en el momento en que la mente de la víctima es más vulnerable: durante el sueño. La extraña habilidadde Cobb le ha convertido en un hombre muy codiciado en el mundo del espionaje corporativo, pero también le ha condenado a ser un fugitivo internacional, costándole todo lo que alguna vez ha querido. Ahora tiene una oportunidad de redimirse y volver a tener la vida normal que anhela, pero para ello él y su equipo tendrán que realizar lo contrario a lo que realizan habitualmente: la incepción, que consiste en implantar una idea en el subconsciente en lugar de sustraerla. Sin embargo su plan se complica cuando un peligroso enemigo parece predecir cada uno de sus movimientos. Un enemigo que sólo Cobb podía ver venir...

Format : Matroska
File size : 5.24 GiB

Duration : 2h 22mn

Overall bit rate : 5 284 Kbps

Movie name : nurio

Encoded date : UTC 2010-11-28 14:35:29

Writing application : mkvmerge v2.2.0 ('Turn It On Again') built on Mar 4 2008 13:20:25
Writing library : libebml v0.7.7 + libmatroska v0.8.1
Video
ID : 1
Format : AVC
Format/Info : Advanced Video Codec
Format profile : High@L4.0
Format settings, CABAC : No
Format settings, ReFrames : 1 frame
Codec ID : V_MPEG4/ISO/AVC
Duration : 2h 22mn
Bit rate : 5 000 Kbps
Width : 1 280 pixels
Height : 720 pixels
Display aspect ratio : 4:3
Original display aspect ratio : 16:9
Frame rate : 25.000 fps
Color space : YUV
Chroma subsampling : 4:2:0
Bit depth : 8 bits
Scan type : Progressive
Bits/(Pixel*Frame) : 0.217
Stream size : 4.76 GiB (91%)
Writing library : x264 core 80 r1378+57 6f6b50a
Encoding settings : cabac=0 / ref=1 / deblock=1:0:0 / analyse=0x3:0x113 / me=hex / subme=7 / psy=1 / psy_rd=1.0:0.0 / mixed_ref=0 / me_range=16 / chroma_me=1 / trellis=0 / 8x8dct=1 / cqm=0 / deadzone=21,11 / fast_pskip=1 / chroma_qp_offset=-2 / threads=3 / sliced_threads=0 / nr=0 / decimate=1 / mbaff=0 / constrained_intra=0 / bframes=0 / wpredp=2 / keyint=250 / keyint_min=25 / scenecut=40 / rc_lookahead=40 / rc=abr / mbtree=1 / bitrate=5000 / ratetol=1.0 / qcomp=0.60 / qpmin=10 / qpmax=51 / qpstep=4 / ip_ratio=1.40 / aq=1:1.00
Audio
ID : 2
Format : AC-3
Format/Info : Audio Coding 3
Mode extension : CM (complete main)
Codec ID : A_AC3
Duration : 2h 22mn
Bit rate mode : Constant
Bit rate : 384 Kbps
Channel(s) : 6 channels
Channel positions : Front: L C R, Side: L R, LFE
Sampling rate : 48.0 KHz
Bit depth : 16 bits
Stream size : 390 MiB (7%)
Language : Spanish

Accesible sólo a usuarios



 
Foro » Peliculas y Series » HDD/BluRay » Origen (Inception)[BDrip][1280x720][Esp_ac3][Trhiller_Intrig
Página 1 de 11
Búscar: